Taco Tuesday Fire Jam 2021-06-15

2020-06-15

Download FLAC (742 MB)

FILE "Be - Taco Tuesday Fire Jam 2021-06-15.flac" FLAC
  TRACK 01 AUDIO
    TITLE "Vengo"
    PERFORMER "Ana Tijoux"
    INDEX 01 00:02:16
  TRACK 02 AUDIO
    TITLE "Minor Cause (Live)"
    PERFORMER "emancipator"
    INDEX 01 03:10:60
  TRACK 03 AUDIO
    TITLE "Downstream"
    PERFORMER "Chris Dacosse"
    INDEX 01 07:34:62
  TRACK 04 AUDIO
    TITLE "3l3ktr0w3rk"
    PERFORMER "Superdirt²"
    INDEX 01 11:11:52
  TRACK 05 AUDIO
    TITLE "Mangle Boogie Bangle"
    PERFORMER "Spoonbill"
    INDEX 01 15:26:22
  TRACK 06 AUDIO
    TITLE "Asteroid"
    PERFORMER "griff"
    INDEX 01 20:37:34
  TRACK 07 AUDIO
    TITLE "I Just Want to Dance"
    PERFORMER "SAULT"
    INDEX 01 27:13:37
  TRACK 08 AUDIO
    TITLE "Just Visiting"
    PERFORMER "Wookiefoot"
    INDEX 01 31:18:49
  TRACK 09 AUDIO
    TITLE "La cumbia me está llamando (featuring La Perla)"
    PERFORMER "Nubya Garcia"
    INDEX 01 34:36:50
  TRACK 10 AUDIO
    TITLE "Waking Bliss"
    PERFORMER "Auditive Escape"
    INDEX 01 38:13:41
  TRACK 11 AUDIO
    TITLE "You Been Sleepin"
    PERFORMER "Erothyme"
    INDEX 01 41:50:31
  TRACK 12 AUDIO
    TITLE "Lot Three"
    PERFORMER "Spoonbill"
    INDEX 01 45:08:32
  TRACK 13 AUDIO
    TITLE "Yin And Yang"
    PERFORMER "uyama hiroto"
    INDEX 01 48:54:55
  TRACK 14 AUDIO
    TITLE "Dead Soon"
    PERFORMER "Tipper"
    INDEX 01 51:44:35
  TRACK 15 AUDIO
    TITLE "Living Time"
    PERFORMER "Bluetech"
    INDEX 01 53:56:36
  TRACK 16 AUDIO
    TITLE "Florn"
    PERFORMER "Culprate"
    INDEX 01 59:26:38
  TRACK 17 AUDIO
    TITLE "Moving On"
    PERFORMER "Phaeleh"
    INDEX 01 63:12:60
  TRACK 18 AUDIO
    TITLE "World's End Rhapsody"
    PERFORMER "Nujabes"
    INDEX 01 68:52:20
  TRACK 19 AUDIO
    TITLE "Zwartkop (feat The We're Home Family Drum Brigade)"
    PERFORMER "KiloWatts"
    INDEX 01 74:22:22
  TRACK 20 AUDIO
    TITLE "Talk To Me"
    PERFORMER "Little People"
    INDEX 01 81:54:67
  TRACK 21 AUDIO
    TITLE "Each Other"
    PERFORMER "Random Rab"
    INDEX 01 85:03:36
  TRACK 22 AUDIO
    TITLE "Bigger Grooves"
    PERFORMER "Neon Vectors"
    INDEX 01 89:18:06
  TRACK 23 AUDIO
    TITLE "Beats Per Feeling"
    PERFORMER "Auditive Escape"
    INDEX 01 91:58:28
  TRACK 24 AUDIO
    TITLE "Antenna"
    PERFORMER "Bonobo"
    INDEX 01 95:54:08
  TRACK 25 AUDIO
    TITLE "Finally Moving"
    PERFORMER "Pretty Lights"
    INDEX 01 99:12:09
  TRACK 26 AUDIO
    TITLE "Holy (Reprise)"
    PERFORMER "Jamila Woods"
    INDEX 01 103:36:11
  TRACK 27 AUDIO
    TITLE "Got No Ride"
    PERFORMER "Sunny War"
    INDEX 01 106:25:65
  TRACK 28 AUDIO
    TITLE "Heaven's Gonna Burn Your Eyes"
    PERFORMER "Thievery Corporation"
    INDEX 01 109:34:34
  TRACK 29 AUDIO
    TITLE "Love's Joy"
    PERFORMER "Dixon's Violin"
    INDEX 01 113:20:57
  TRACK 30 AUDIO
    TITLE "Find Your Way"
    PERFORMER "Rising Appalachia"
    INDEX 01 116:10:37
  TRACK 31 AUDIO
    TITLE "Days Gone By"
    PERFORMER "Eastern Sun"
    INDEX 01 120:43:71
  TRACK 32 AUDIO
    TITLE "Dreamstate feat. 3rd Person & Breakplus"
    PERFORMER "LyricL"
    INDEX 01 124:11:29
  TRACK 33 AUDIO
    TITLE "Dictaphone's Lament"
    PERFORMER "Tycho"
    INDEX 01 128:07:09
  TRACK 34 AUDIO
    TITLE "Bananaphone"
    PERFORMER "Raffi"
    INDEX 01 132:21:53